#TITLE:Necro Fantasy;
#SUBTITLE:MSIXCVI & xXTheLeadXx (solo);
#ARTIST:ZUN;
#TITLETRANSLIT:;
#SUBTITLETRANSLIT:;
#ARTISTTRANSLIT:;
#CREDIT:msixcvi & xXTheLeadXx (solo);
#BANNER:bn.jpg;
#BACKGROUND:bg.jpg;
#LYRICSPATH:;
#CDTITLE:cd.png;
#MUSIC:Necro Fantasy.mp3;
#OFFSET:0.000;
#SAMPLESTART:48.340;
#SAMPLELENGTH:23.320;
#SELECTABLE:YES;
#BPMS:0.000=164.001,6.000=163.991,7.000=164.001,13.000=163.991,14.000=164.001,20.000=163.991,21.000=164.001,27.000=163.991,28.000=164.001,33.000=163.991,34.000=164.001,40.000=163.991,41.000=164.001,47.000=163.991,48.000=164.001,54.000=163.991,55.000=164.001,61.000=163.991,62.000=164.001,67.000=163.991,68.000=164.001,74.000=163.991,75.000=164.001,81.000=163.991,82.000=164.001,88.000=163.991,89.000=164.001,94.000=163.991,95.000=164.001,101.000=163.991,102.000=164.001,108.000=163.991,109.000=164.001,115.000=163.991,116.000=164.001,122.000=163.991,123.000=164.001,129.000=163.991,130.000=164.001,135.000=163.991,136.000=164.001,142.000=163.991,143.000=164.001,149.000=163.991,150.000=164.001,155.000=163.991,156.000=164.001,162.000=163.991,163.000=164.001,169.000=163.991,170.000=164.001,176.000=163.991,177.000=164.001,183.000=163.991,184.000=164.001,189.000=163.991,190.000=164.001,196.000=163.991,197.000=164.001,203.000=163.991,204.000=164.001,210.000=163.991,211.000=164.001,217.000=163.991,218.000=164.001,224.000=163.991,225.000=164.001,230.000=163.991,231.000=164.001,237.000=163.991,238.000=164.001,244.000=163.991,245.000=164.001,251.000=163.991,252.000=164.001,258.000=163.991,259.000=164.001,264.000=163.991,265.000=164.001,270.000=163.991,271.000=164.001,277.000=163.991,278.000=164.001,284.000=163.991,285.000=164.001,291.000=163.991,292.000=164.001,298.000=163.991,299.000=164.001,304.000=163.991,305.000=164.001,311.000=163.991,312.000=164.001,318.000=163.991,319.000=164.001,325.000=163.991,326.000=164.001,332.000=163.991,333.000=164.001,339.000=163.991,340.000=164.001,345.000=163.991,346.000=164.001,352.000=163.991,353.000=164.001,357.250=135.001,357.750=235.001,358.750=164.021,359.000=163.991,360.000=164.001,366.000=163.991,367.000=164.001,373.000=163.991,374.000=164.001,379.000=163.991,380.000=164.001,386.000=163.991,387.000=164.001,393.000=163.991,394.000=164.001,400.000=163.991,401.000=164.001,407.000=163.991,408.000=164.001,414.000=163.991,415.000=164.001,420.000=163.991,421.000=164.001,427.000=163.991,428.000=164.001,434.000=163.991,435.000=164.001,441.000=163.991,442.000=164.001,448.000=163.991,449.000=164.001,454.000=163.991,455.000=164.001,461.000=163.991,462.000=164.001,468.000=163.991,469.000=164.001,475.000=163.991,476.000=164.001,482.000=163.991,483.000=164.001,489.000=163.991,490.000=164.001,495.000=163.991,496.000=164.001,502.000=163.991,503.000=164.001,509.000=163.991,510.000=164.001,516.000=163.991,517.000=164.001,521.000=163.991,522.000=164.001,528.000=163.991,529.000=164.001,535.000=163.991,536.000=164.001,541.000=163.991,542.000=164.001,548.000=163.991,549.000=164.001,555.000=163.991,556.000=164.001,562.000=163.991,563.000=164.001,569.000=163.991,570.000=164.001,575.000=163.991,576.000=164.001;
#STOPS:;
#BGCHANGES:;
// cache tags:
#FIRSTBEAT:3.250;
#LASTBEAT:583.250;
#SONGFILENAME:Songs/Super Dancer Online/Necro Fantasy (msixcvi & xXTheLeadXx)/Necro Fantasy.sm;
#HASMUSIC:1;
#HASBANNER:1;
#MUSICLENGTH:213.054;
// end cache tags

//---------------dance-single - ----------------
#NOTES:
     dance-single:
     :
     Hard:
     33:
     1.000,1.000,1.000,1.000,1.000,1461.000,465.000,1103.000,0.000,258.000:
0000
0000
0000
0000
0000
0000
0000
0000
0000
0000
0000
0000
0000
0001
0001
0001
,
0001
2100
0000
0100
0000
0100
0000
0010
0000
0000
0000
0010
0000
0010
0000
3001
,
0000
2000
0000
0001
0000
0001
0000
0010
0000
0000
0000
0010
0000
0010
0000
3100
,
0000
2000
0000
0100
0000
0100
0000
0010
0000
0000
0000
0010
0000
0010
0000
3001
,
0000
2000
0000
0000
0000
0000
0000
0000
0000
0000
0000
0000
0001
3010
0100
0012
,
0000
0010
0000
0010
0000
0100
0000
0000
0000
0100
0000
0100
0000
1003
0000
0002
,
0000
1000
0000
1000
0000
0100
0000
0000
0000
0100
0000
0100
0000
0013
0000
0002
,
0000
0010
0000
0010
0000
0100
0000
0000
0000
0100
0000
0100
0000
1003
0000
0002
,
0000
0000
0000
0000
0000
0000
0000
0000
0000
0000
0000
0000
0000
0010
0013
0010
,
0010
2100
0000
0100
0000
0100
0000
0010
0000
0000
0000
0010
0000
0010
0000
3001
,
0000
2000
0000
0001
0000
0001
0000
0010
0000
0000
0000
0010
0000
0010
0000
3100
,
0000
2000
0000
0100
0000
0100
0000
0010
0000
0000
0000
0010
0000
0010
0000
3001
,
0000
2000
0000
0000
0000
0000
0000
0000
0000
0000
0000
0000
0000
0100
3100
0100
,
0100
0012
0000
0010
0000
0010
0000
0100
0000
0000
0000
0100
0000
0100
0000
1003
,
0000
0002
0000
1000
0000
1000
0000
0100
0000
0000
0000
0100
0000
0100
0000
0013
,
0000
0002
0000
0010
0000
0010
0000
0100
0000
0000
0000
0100
0000
0100
0000
1003
,
0100
0012
0100
1000
0100
0010
0100
0010
0100
0010
0100
0010
0100
0010
0100
0013
,
0100
1010
0100
1010
0001
0110
1000
0101
0010
0001
0010
1100
0010
0101
1000
0110
,
0001
0010
0100
1010
0001
0110
1000
0101
0010
0100
1000
0110
0001
1010
0100
0011
,
0100
1000
0100
1010
0001
0110
1000
0101
0010
0001
0010
1100
0010
0101
1000
0110
,
0001
0000
0020
0030
0200
0300
2000
3000
0200
0300
2000
3000
0200
0300
0020
0030
0002
0003
0020
0030
0200
0300
0020
0030
0002
0003
0020
0030
1100
0000
0110
0000
,
0011
0110
1000
0101
0010
1100
0010
0101
0010
0100
1000
0110
0001
1010
0100
1010
,
0001
0010
0100
0011
0100
1010
0001
0110
1000
0100
0010
0101
1000
0110
0001
0110
,
1000
0100
0010
0101
1000
0110
0001
1010
0100
1000
0100
0011
0100
1010
0001
0110
,
1000
0000
0020
0030
0002
0003
0020
0030
0200
0300
2000
3000
0200
0300
0020
0030
0200
0300
2000
3000
0200
0300
0020
0030
0002
0003
0020
0030
0200
0300
2000
3000
,
0200
0300
1010
0000
0100
0000
0011
0000
0100
0000
1010
0000
0001
0000
0110
0000
1000
0000
0100
0000
0010
0000
0101
0000
1000
0000
0110
0000
0001
0000
1010
0000
,
0100
0010
0001
1010
0100
0011
0100
1010
0100
0010
0001
0110
1000
0101
0010
1100
,
0010
0001
0010
0101
1000
0110
0001
1010
0100
1000
0100
0011
0100
1010
0001
0110
,
1000
0000
0200
0300
0020
0030
0002
0003
0020
0030
0200
0300
2000
3000
0200
0300
0020
0030
0200
0300
0020
0030
0002
0003
0020
0030
0200
0300
2000
3000
0200
0300
,
0020
0030
0101
0000
1000
0000
0110
0000
0001
0000
1010
0000
0100
0000
0011
0000
0100
0000
1000
0000
0100
0000
1010
0000
0001
0000
0110
0000
1000
0000
0101
0000
,
0010
0001
0010
1100
0010
0101
1000
0110
0001
0010
0100
1010
0001
0110
1000
0101
,
0010
0100
1000
0110
0001
1010
0100
1010
0001
0010
0100
1010
0001
0110
1000
0110
,
0001
1010
0100
1010
0001
1100
0011
1100
0011
1100
0011
1100
0011
1100
0011
1100
,
0011
0000
0000
0000
2002
0000
0000
0000
0000
3000
0000
0000
0020
0000
0000
0000
0003
0000
0000
0000
2200
0000
0000
0000
0000
0330
0000
0000
0002
0000
0000
0000
0000
0000
0000
0000
3220
0000
0000
0000
0000
0033
0000
0000
2000
0000
0000
0000
0000
0300
0000
0000
0202
0000
0000
0000
0000
3303
0000
0000
2020
0000
0000
0000
,
0000
0000
0000
0000
0002
0000
0000
0000
0200
3003
0000
0000
0000
0000
0000
0000
2000
0000
0000
0000
0000
0000
3300
0000
0002
0000
0000
0000
0000
0000
0000
0000
2000
0000
0000
0000
0000
0000
3003
0000
0200
0000
0000
0000
0000
0000
0000
0000
0002
0030
0000
0000
0000
0000
0303
0000
2020
0000
0000
0000
0000
0000
0000
0000
,
0200
0000
0000
0000
0000
0000
3300
0000
0002
0000
0000
0000
0000
0000
0000
0000
2200
0030
0000
0000
0020
0000
0303
0000
0000
0000
0000
0000
0202
0000
3000
0000
0030
0003
0000
0000
2000
0000
0000
0000
0000
0000
0300
0000
0022
0000
0000
0000
0000
3033
0000
0000
0202
0000
0000
0000
0000
0000
0000
0000
0020
0000
0000
0000
,
2000
0033
0000
0000
0000
0300
0000
0000
0022
0000
0000
0000
0000
3003
0000
0000
0200
0000
0000
0000
0000
0030
0000
0000
0022
0000
0000
0000
0000
0330
0000
0000
2000
0000
0000
0000
0000
0003
0000
0000
0220
0000
0000
0000
0000
3330
0000
0000
0202
0000
0000
0000
0000
0000
0000
0000
2000
0000
0000
0000
0000
3003
0000
0000
,
0020
0000
0000
0000
0000
0300
0000
0000
2002
0000
0000
0000
0000
0033
0000
0000
0200
0000
0000
0000
0000
3000
0000
0000
0022
0000
0000
0000
0000
0330
0000
0000
2000
0000
0000
0000
0000
0003
0000
0000
0202
0000
0000
0000
0000
3303
0000
0000
2020
0000
0000
0000
0000
0000
0000
0000
0200
0000
0000
0000
0002
3300
0000
0000
,
0000
0030
0000
0000
2200
0000
0000
0000
0000
0303
0000
0000
0020
0000
0000
0000
0000
3000
0000
0000
0202
0000
0000
0000
0000
0330
0000
0000
0020
0000
0000
0000
0000
0003
0000
0000
2200
0000
0000
0000
0000
3330
0000
0000
0202
0000
0000
0000
0000
0000
0000
0000
0020
0000
0000
0000
0000
0330
0000
0000
2000
0000
0000
0000
,
0000
0003
0000
0000
0220
0000
0000
0000
0000
3300
0000
0000
0002
0000
0000
0000
0000
0030
0000
0000
2200
0000
0000
0000
0000
3003
0000
0000
0020
0000
0000
0000
0000
0300
0000
0000
2002
0000
0000
0000
0000
3033
0000
0000
0202
0000
0000
0000
0000
0000
0000
0000
2000
0000
0000
0000
0000
3003
0000
0000
0020
0000
0000
0000
,
0000
0000
0000
0000
0002
0000
0000
0000
0000
0033
0000
0000
2000
0000
0000
0000
0000
0000
0000
0000
0020
0000
0000
0000
0000
3030
0000
0000
0002
0000
0000
0000
0000
0000
0000
0000
2000
0000
0300
0000
0000
3003
0000
0000
0220
0000
0000
0000
0000
0000
0000
0000
0002
0000
0000
0000
0000
0033
0000
0000
2000
0000
0000
0000
,
0000
0300
0000
0000
0022
0000
0000
0000
0000
3030
0000
0000
0200
0000
0000
0000
0020
0003
0000
0000
2000
0000
0000
0000
0002
3300
0000
0000
0000
0000
0030
0000
2200
0000
0000
0000
0000
3303
0000
0000
0220
0000
0000
0000
0000
0000
0000
0000
2000
0000
0000
0000
0000
3030
0000
0000
0002
0000
0000
0000
0000
0000
0000
0000
,
0020
0000
0000
0000
0000
0033
0000
0000
2000
0000
0000
0000
0000
0000
0000
0000
0020
0000
0000
0000
0000
3030
0000
0000
2000
0000
0000
0000
0000
0300
0000
0000
0002
0000
0000
0000
0000
3003
0000
0000
0220
0000
0000
0000
0000
0000
0000
0000
0002
0000
0000
0000
0000
0033
0000
0000
2000
0300
0000
0000
0000
0000
0000
0000
,
0022
0000
0000
0000
0000
3030
0000
0000
0200
0000
0000
0000
0000
0003
0000
0000
2020
0000
0000
0000
0000
3300
0000
0000
0002
0000
0000
0000
0000
0030
0000
0000
2200
0000
0000
0000
0000
3303
0000
0000
0022
0000
0000
0000
0000
0000
0000
0000
0200
0000
0000
0000
0000
0303
0000
0000
2000
0000
0000
0000
0000
0030
0000
0000
,
0202
0000
0000
0000
0000
3003
0000
0000
0020
0000
0000
0000
0000
0300
0000
0000
2002
0000
0000
0000
0000
0033
0000
0000
0200
0000
0000
0000
0000
3000
0000
0000
2002
0000
0000
0000
0000
3303
0000
0000
0220
0000
0000
0000
0000
0000
0000
0000
0002
0000
0000
0000
0000
0303
0000
0000
2000
0000
0000
0000
0000
0030
0000
0000
,
0202
0000
0000
0000
0000
3003
0000
0000
0020
0000
0000
0000
0000
0300
0000
0000
2002
0000
0000
0000
0000
3030
0000
0000
0200
0000
0000
0000
0000
0003
0000
0000
2020
0000
0000
0000
0000
3330
0000
0000
0202
0000
0000
0000
0000
0000
0000
0000
0020
0000
0000
0000
0000
0033
0000
0000
2000
0000
0000
0000
0000
0300
0000
0000
,
0022
0000
0000
0000
0000
3003
0000
0000
0200
0000
0000
0000
0000
0030
0000
0000
2002
0000
0000
0000
0000
0303
0000
0000
0020
0000
0000
0000
0000
3000
0000
0000
0202
0000
0000
0000
0000
0333
0000
0000
2020
0000
0000
0000
0000
0000
0000
0000
0200
0000
0000
0000
0000
3300
0000
0000
0002
0000
0000
0000
0000
0000
0000
0000
,
0200
0000
0000
0000
0000
0303
0000
0000
2000
0000
0000
0000
0000
0000
0000
0000
0002
0000
0000
0000
0000
3003
0000
0000
0200
0000
0000
0000
0000
0000
0000
0000
0002
0000
0000
0000
0000
0303
0000
0000
2000
0000
0000
0000
0000
0000
0000
0000
0200
0000
0000
0000
0000
3300
0000
0000
0002
0000
0000
0000
0000
0000
0000
0000
,
2000
0000
0000
0000
0000
3003
0000
0000
0200
0000
0000
0000
0000
0000
0000
0000
0002
0000
0000
0000
0000
0303
0000
0000
2000
0000
0000
0000
0000
0000
0000
0000
0200
0000
0000
0000
0000
3300
0000
0000
0200
0000
0000
0000
0000
0030
0000
0000
2002
0000
0000
0000
0000
3300
0000
0000
0020
0000
0000
0000
0000
0003
0000
0000
,
2200
0000
0000
0000
0000
0330
0000
0000
0002
0000
0000
0000
0000
3000
0000
0000
0220
0000
0000
0000
0000
0033
0000
0000
2000
0000
0000
0000
0000
0300
0000
0000
0202
0000
0000
0000
0000
3303
0000
0000
2020
0000
0000
0000
0000
0000
0000
0000
0002
0000
0000
0000
0000
3003
0000
0000
0200
0000
0000
0000
0000
0000
0000
0000
,
2000
0000
0000
0000
0000
3300
0000
0000
0002
0000
0000
0000
0000
0000
0000
0000
2000
0000
0000
0000
0000
3003
0000
0000
0200
0000
0000
0000
0000
0030
0000
0000
0002
0000
0000
0000
0000
0303
0000
0000
2020
0000
0000
0000
0000
0000
0000
0000
0200
0000
0000
0000
0000
3300
0000
0000
0002
0000
0000
0000
0000
0030
0000
0000
,
2200
0000
0000
0000
0000
0303
0000
0000
0020
0000
0000
0000
0000
3000
0000
0000
0202
0000
0000
0000
0000
0033
0000
0000
2000
0000
0000
0000
0000
0300
0000
0000
0022
0000
0000
0000
0000
3033
0000
0000
0202
0000
0000
0000
0000
0000
0000
0000
0020
0000
0000
0000
0000
0033
0000
0000
2000
0000
0000
0000
0000
0300
0000
0000
,
0022
0000
0000
0000
0000
3003
0000
0000
0200
0000
0000
0000
0000
0030
0000
0000
0022
0000
0000
0000
0000
0330
0000
0000
2000
0000
0000
0000
0000
0003
0000
0000
0220
0000
0000
0000
0000
3330
0000
0000
0202
0000
0000
0000
0000
0000
0000
0000
2000
0000
0000
0000
0000
3003
0000
0000
0020
0000
0000
0000
0000
0300
0000
0000
,
2002
0000
0000
0000
0000
0033
0000
0000
0200
0000
0000
0000
0000
3000
0000
0000
0022
0000
0000
0000
0000
0330
0000
0000
2000
0000
0000
0000
0000
0003
0000
0000
0202
0000
0000
0000
0000
3303
0000
0000
2020
0000
0000
0000
0000
0000
0000
0000
0200
0000
0000
0000
0000
3300
0000
0000
0002
0000
0000
0000
0000
0030
0000
0000
,
2200
0000
0000
0000
0000
0303
0000
0000
0020
0000
0000
0000
0000
3000
0000
0000
0202
0000
0000
0000
0000
0330
0000
0000
0020
0000
0000
0000
0000
0003
0000
0000
2200
0000
0000
0000
0000
3330
0000
0000
0202
0000
0000
0000
0000
0000
0000
0000
0020
0000
0000
0000
0000
0330
0000
0000
2000
0000
0000
0000
0000
0003
0000
0000
,
0220
0000
0000
0000
0000
3300
0000
0000
0002
0000
0000
0000
0000
0030
0000
0000
2200
0000
0000
0000
0000
3003
0000
0000
0020
0000
0000
0000
0000
0300
0000
0000
2002
0000
0000
0000
0000
3033
0000
0000
0202
0000
0000
0000
0000
0000
0000
0000
2000
0000
0000
0000
0000
3003
0000
0000
0020
0000
0000
0000
0000
0000
0000
0000
,
0002
0000
0000
0000
0000
0033
0000
0000
2000
0000
0000
0000
0000
0000
0000
0000
0020
0000
0000
0000
0000
3030
0000
0000
0002
0000
0000
0000
0000
0000
0000
0000
2000
0300
0000
0000
0000
3003
0000
0000
0220
0000
0000
0000
0000
0000
0000
0000
0002
0000
0000
0000
0000
0033
0000
0000
2000
0000
0000
0000
0000
0300
0000
0000
,
0022
0000
0000
0000
0000
3030
0000
0000
0200
0000
0000
0000
0000
0003
0000
0000
2020
0000
0000
0000
0000
3300
0000
0000
0002
0000
0000
0000
0000
0030
0000
0000
2200
0000
0000
0000
3300
0003
0000
0000
0220
0000
0000
0000
0000
0000
0000
0000
2000
0000
0000
0000
0000
3030
0000
0000
0002
0000
0000
0000
0000
0000
0000
0000
,
0020
0000
0000
0000
0000
0033
0000
0000
2000
0000
0000
0000
0000
0000
0000
0000
0020
0000
0000
0000
0000
3030
0000
0000
2000
0000
0000
0000
0000
0000
0000
0000
0002
0300
0000
0000
0000
3003
0000
0000
0220
0000
0000
0000
0000
0000
0000
0000
0002
0000
0000
0000
0000
0033
0000
0000
2000
0000
0000
0000
0300
0000
0000
0000
,
0022
0000
0000
0000
0000
3030
0000
0000
0200
0000
0000
0000
0000
0003
0000
0000
2020
0000
0000
0000
0000
3300
0000
0000
0002
0000
0000
0000
0000
0030
0000
0000
2200
0000
0000
0000
0000
3303
0000
0000
0022
0000
0000
0000
0000
0000
0000
0000
0200
0000
0000
0000
0000
0303
0000
0000
2000
0000
0000
0000
0000
0030
0000
0000
,
0202
0000
0000
0000
0000
3003
0000
0000
0020
0000
0000
0000
0000
0300
0000
0000
2002
0000
0000
0000
0000
0033
0000
0000
0200
0000
0000
0000
0000
3000
0000
0000
2002
0000
0000
0000
0000
3303
0000
0000
0220
0000
0000
0000
0000
0000
0000
0000
0002
0000
0000
0000
0000
0303
0000
0000
2000
0000
0000
0000
0000
0030
0000
0000
,
0202
0000
0000
0000
0000
3003
0000
0000
0020
0000
0000
0000
0000
0300
0000
0000
2002
0000
0000
0000
0000
3030
0000
0000
0200
0000
0000
0000
0000
0003
0000
0000
2020
0000
0000
0000
0000
3330
0000
0000
0202
0000
0000
0000
0000
0000
0000
0000
0020
0000
0000
0000
0000
0033
0000
0000
2000
0000
0000
0000
0000
0300
0000
0000
,
0022
0000
0000
0000
0000
3003
0000
0000
0200
0000
0000
0000
0000
0030
0000
0000
2002
0000
0000
0000
0000
0303
0000
0000
0020
0000
0000
0000
0000
3000
0000
0000
0202
0000
0000
0000
0000
0333
0000
0000
2020
0000
0000
0000
0000
0000
0000
0000
0200
0000
0000
0000
0000
3300
0000
0000
0002
0000
0000
0000
0000
0000
0000
0000
,
0200
0000
0000
0000
0000
0303
0000
0000
2000
0000
0000
0000
0000
0000
0000
0000
0002
0000
0000
0000
0000
3003
0000
0000
0200
0000
0000
0000
0000
0000
0000
0000
0002
0000
0000
0000
0000
0303
0000
0000
2000
0000
0000
0000
0000
0000
0000
0000
0200
0000
0000
0000
0000
3300
0000
0000
0002
0000
0000
0000
0000
0000
0000
0000
,
0000
0000
0000
0000
0000
0000
0000
0000
0000
0000
0000
0000
1000
0000
0000
0000
1000
0003
0000
0000
1000
0000
0000
0000
1000
0000
0000
0000
0001
0000
0000
0000
0001
0000
0000
0000
0001
0000
0000
0000
0001
0000
0000
0000
0100
0000
0000
0000
0100
0000
0000
0000
0100
0000
0000
0000
0100
0030
0000
0000
2222
0000
0000
0000
,
3333
0000
0000
0000
0000
0000
0000
0000
0000
0220
0330
0000
0000
0000
0000
0000
,
0000
2002
3003
0000
0000
0000
0000
0000
0220
0330
0000
0000
0000
0000
0000
0000
,
2002
3003
0000
0000
0000
0000
0000
0000
0220
0330
0000
0000
0000
0000
0000
0000
,
2002
3003
0000
0000
0000
0000
0000
0000
0000
0220
0330
0000
0000
0000
0000
0000
,
2222
3333
0000
0000
0000
0000
0000
0000
2002
3003
0000
0000
0000
0000
0000
0000
,
2002
3003
0000
0000
0000
0000
0000
0000
0000
2002
3003
0000
0000
0000
0000
0000
,
0220
0330
0000
0000
0000
0000
0000
0000
0220
0330
0000
0000
0000
0000
0000
0000
,
0220
0330
0000
0000
0000
0000
0000
0000
0220
0330
0000
0000
0000
0000
0000
0000
,
2222
3333
0000
0000
0000
0220
0330
0000
0000
2002
3003
0000
0000
0220
0330
0000
,
0000
2002
3003
0000
0000
0220
0330
0000
0000
2002
3003
0000
0000
0220
0330
0000
,
0000
2002
3003
0000
0000
0220
0330
0000
0000
2002
3003
0000
0000
0220
0330
0000
,
0000
2002
3003
0000
0000
0220
0330
0000
0000
2002
3003
0000
0000
0220
0330
0000
,
0000
2002
3003
0000
0000
2002
3003
0000
0000
0220
0330
0000
0000
0220
0330
0000
,
0000
2002
3003
0000
0000
2002
3003
0000
0000
0220
0330
0000
0000
0220
0330
0000
,
0000
2002
3003
0000
0000
0220
0330
0000
0000
2002
3003
0000
0000
0220
0330
0000
,
0000
0000
2002
0000
3003
0000
0000
0000
0000
0000
0220
0000
0330
0000
0000
0000
0000
0000
2112
3003
0000
0000
0000
0000
2222
3333
0000
0000
2222
3333
0000
0000
,
0000
0000
0000
0000
0000
0000
0000
0000
2001
3010
0100
0010
0102
1003
0100
0010
,
2100
3110
0011
0110
1002
0103
0010
0100
2001
3010
0100
0010
0102
1003
0100
0010
,
2100
3110
0011
0110
1002
0103
0010
0100
1002
0103
0010
0100
2010
3001
0010
0100
,
0012
0113
1100
0110
2001
3010
0100
0010
1002
0103
0010
0100
2010
3001
0010
0100
,
0012
0113
1100
0110
2001
3010
0100
0010
2001
3010
0100
0010
0102
1003
0100
0010
,
2100
3110
0011
0110
1002
0103
0010
0100
2001
3010
0100
0010
0102
1003
0100
0010
,
2100
3110
0011
0110
1002
0103
0010
0100
1002
0103
0010
0100
2010
3001
0010
0100
,
0012
0000
0113
0000
1100
0000
0110
0000
2001
0000
3010
0000
0100
0000
0010
0000
1002
0000
0103
0000
0020
0030
0002
0003
2000
3000
0200
0300
0020
0030
0002
0003
,
2000
3000
0200
0300
0020
0030
0002
0003
2200
0000
0000
0000
0000
0000
0000
0000
3300
0000
0021
0030
0200
0300
2000
3000
0200
0300
0021
0030
0200
0300
2000
3000
,
0200
0300
0021
0030
0200
0300
2000
3000
0200
0300
0021
0030
0200
0300
2000
3000
0200
0300
0021
0030
0200
0300
2000
3000
0200
0300
0021
0030
0200
0300
2000
3000
,
0200
0300
0021
0030
0200
0300
2000
3000
0200
0300
0021
0030
0200
0300
2000
3000
0200
0300
1020
0030
0002
0003
0020
0030
0200
0300
1020
0030
0002
0003
0020
0030
,
0200
0300
1020
0030
0002
0003
0020
0030
0200
0300
1020
0030
0002
0003
0020
0030
0200
0300
1020
0030
0002
0003
0020
0030
0200
0300
1020
0030
0002
0003
0020
0030
,
0200
0300
1020
0030
0002
0003
0020
0030
0200
0300
1020
0030
0002
0003
0020
0030
0200
0300
2001
3000
0200
0300
0020
0030
0200
0300
2001
3000
0200
0300
0020
0030
,
0200
0300
2001
3000
0200
0300
0020
0030
0200
0300
2001
3000
0200
0300
0020
0030
0200
0300
2001
3000
0200
0300
0020
0030
0200
0300
2001
3000
0200
0300
0020
0030
,
0200
0300
2001
3000
0200
0300
0020
0030
0200
0300
2001
3000
0200
0300
0020
0030
0002
0003
1200
0300
0020
0030
0002
0003
0020
0030
1200
0300
0020
0030
0002
0003
,
0020
0030
1200
0300
0020
0030
0002
0003
0020
0030
1200
0300
0020
0030
0002
0003
0020
0030
1200
0300
0020
0030
0002
0003
0020
0030
1200
0300
0020
0030
0002
0003
,
0020
0030
1200
0300
0020
0030
0002
0003
0020
0030
1200
0300
0020
0030
0002
0003
0020
0030
2100
0000
3010
0000
0001
0000
0010
0000
0102
0000
0013
0000
0100
0000
,
1000
0210
0301
0010
0100
2010
3001
0120
1030
0100
0010
0001
0010
0100
1000
0100
,
0010
0001
0010
0100
0010
0100
1000
0210
0301
0010
0100
1000
0100
0012
0103
1000
,
0100
2010
3001
0010
0100
2010
3001
0120
1030
0100
0010
0001
0010
0102
0013
0100
,
1000
0201
0310
0001
0010
0102
1003
0120
1030
0100
0010
0001
0010
1200
0310
0001
,
0010
0102
1003
0100
0010
0201
0310
2001
3010
0100
0010
0100
1000
0201
0310
0001
,
0010
2100
3010
0100
1000
0102
0013
1200
0310
0001
0010
0100
1000
0210
0301
0010
,
0100
0000
2010
0000
3100
0000
0010
0000
0001
0000
0120
0000
1030
0000
0102
0000
0013
0000
0100
0000
0010
0000
0200
0300
2000
3000
0002
0003
0020
0030
0200
0300
,
2000
3000
0002
0003
0020
0030
0200
0300
2000
3000
0022
0000
0000
0000
0000
0000
0000
0000
0033
0000
2100
0000
3010
0000
0100
0000
1000
0000
0210
0000
0301
0000
,
0010
0100
2010
3100
0010
0001
0120
1030
0102
0013
0100
0010
0100
1000
0100
0010
,
0100
0010
0001
0010
0100
1000
0100
0010
0102
1003
0100
0010
0001
0010
2100
3010
,
0100
0010
0102
0013
0100
1000
0210
0301
1020
0130
1000
0100
0010
0001
0120
1030
,
0100
0010
0102
1003
0100
0010
2100
3010
0102
1003
0100
0010
0001
0010
0102
1003
,
0100
0010
0201
0310
0001
0010
2100
3010
0102
1003
0100
0010
0100
1000
0120
1030
,
0100
0000
0010
0000
0102
0000
1003
0000
0100
0000
0010
0000
1002
0000
0103
0000
2010
0000
3100
0000
0010
0000
0001
0000
0020
0030
0200
0300
2000
3000
0200
0300
,
0020
0030
0002
0003
2000
3000
0200
0300
0020
0030
0002
0003
2000
3000
0200
0300
0020
0030
0002
0003
2000
3000
0200
0300
0020
0030
0002
0003
2000
3000
0200
0300
,
0020
0000
0030
0000
0002
0000
0003
0000
2000
0000
3000
0000
0200
0000
0300
0000
0020
0000
0030
0000
0002
0000
0003
0000
2200
0000
0000
0000
0000
0000
0000
0000
0000
0000
0000
0000
0000
3300
0000
0000
0022
0000
0000
0000
0000
0030
0000
0000
2000
0000
0000
0000
0000
0003
0000
0000
0220
0000
0000
0000
0000
3300
0000
0000
,
0002
0000
0000
0000
0000
0030
0000
0000
2200
0000
0000
0000
0000
3003
0000
0000
0020
0000
0000
0000
0000
0300
0000
0000
2002
0000
0000
0000
0000
3033
0000
0000
2200
0000
0000
0000
0000
0000
0000
0000
0020
0000
0000
0000
0000
3030
0000
0000
0002
0000
0000
0000
0000
0000
0000
0000
0020
0000
0000
0000
0000
0033
0000
0000
,
2000
0000
0000
0000
0000
0000
0000
0000
0002
0000
0000
0000
0000
3003
0000
0000
0020
0000
0000
0000
0000
0000
0000
0000
2000
0300
0000
0000
0000
3030
0000
0000
0202
0000
0000
0000
0000
0000
0000
0000
2000
0000
0000
0000
0000
3003
0000
0000
0020
0000
0000
0000
0000
0300
0000
0000
2002
0000
0000
0000
0000
3030
0000
0000
,
0200
0000
0000
0000
0000
0003
0000
0000
0022
0000
0000
0000
0000
0303
0000
0000
2000
0000
0000
0000
0000
0030
0000
0000
0200
0000
0000
0000
0000
3300
0000
0000
0022
0000
0000
0000
0000
0000
0000
0000
0200
0000
0000
0000
0000
0303
0000
0000
2000
0000
0000
0000
0000
0030
0000
0000
0202
0000
0000
0000
0000
3003
0000
0000
,
0020
0000
0000
0000
0000
0300
0000
0000
2200
0000
0000
0000
0000
0330
0000
0000
0002
0000
0000
0000
0000
3000
0000
0000
2200
0000
0000
0000
0000
3303
0000
0000
0022
0000
0000
0000
0000
0000
0000
0000
0200
0000
0000
0000
0000
0303
0000
0000
2000
0000
0000
0000
0000
0030
0000
0000
0022
0000
0000
0000
0000
3030
0000
0000
,
0200
0000
0000
0000
0000
0003
0000
0000
2020
0000
0000
0000
0000
3300
0000
0000
0002
0000
0000
0000
0000
0030
0000
0000
0220
0000
0000
0000
0000
0333
0000
0000
2020
0000
0000
0000
0000
0000
0000
0000
0200
0000
0000
0000
0000
0330
0000
0000
0002
0000
0000
0000
0000
3000
0000
0000
0220
0000
0000
0000
0000
0033
0000
0000
,
2000
0000
0000
0000
0000
0300
0000
0000
0022
0000
0000
0000
0000
3003
0000
0000
0200
0000
0000
0000
0000
0030
0000
0000
2002
0000
0000
0000
0000
3303
0000
0000
0022
0000
0000
0000
0000
0000
0000
0000
0200
0000
0000
0000
0000
0303
0000
0000
2000
0000
0000
0000
0000
0030
0000
0000
0202
0000
0000
0000
0000
3003
0000
0000
,
0020
0000
0000
0000
0000
0300
0000
0000
2200
0000
0000
0000
0000
0330
0000
0000
0002
0000
0000
0000
0000
3000
0000
0000
0220
0000
0000
0000
0000
0333
0000
0000
2020
0000
0000
0000
0000
0000
0000
0000
0200
0000
0000
0000
0000
3300
0000
0000
0002
0000
0000
0000
0000
0000
0000
0000
0200
0000
0000
0000
0000
0303
0000
0000
,
2000
0000
0000
0000
0000
0000
0000
0000
0200
0000
0000
0000
0000
3300
0000
0000
0002
0000
0000
0000
0000
0000
0000
0000
2000
0030
0000
0000
0000
3003
0000
0000
0200
0000
0000
0000
0000
0000
0000
0000
0020
0000
0000
0000
0000
0030
0000
0000
2000
0000
0000
0000
0000
0300
0000
0000
0220
0000
0000
0000
0000
3300
0000
0000
,
0002
0000
0000
0000
0000
0030
0000
0000
2200
0000
0000
0000
0000
3003
0000
0000
0020
0000
0000
0000
0000
0300
0000
0000
2002
0000
0000
0000
0000
3033
0000
0000
2200
0000
0000
0000
0000
0000
0000
0000
0020
0000
0000
0000
0000
3030
0000
0000
0002
0000
0000
0000
0000
0000
0000
0000
0020
0000
0000
0000
0000
0033
0000
0000
,
2000
0000
0000
0000
0000
0000
0000
0000
0002
0000
0000
0000
0000
3003
0000
0000
0020
0000
0000
0000
0000
0000
0000
0000
2000
0300
0000
0000
0000
3030
0000
0000
0202
0000
0000
0000
0000
0000
0000
0000
2000
0000
0000
0000
0000
3003
0000
0000
0020
0000
0000
0000
0000
0300
0000
0000
2002
0000
0000
0000
0000
3030
0000
0000
,
0200
0000
0000
0000
0000
0003
0000
0000
0022
0000
0000
0000
0000
0303
0000
0000
2000
0000
0000
0000
0000
0030
0000
0000
0200
0000
0000
0000
0000
3300
0000
0000
0022
0000
0000
0000
0000
0000
0000
0000
0200
0000
0000
0000
0000
0303
0000
0000
2000
0000
0000
0000
0000
0030
0000
0000
0202
0000
0000
0000
0000
3003
0000
0000
,
0020
0000
0000
0000
0000
0300
0000
0000
2200
0000
0000
0000
0000
0330
0000
0000
0002
0000
0000
0000
0000
3000
0000
0000
2200
0000
0000
0000
0000
3303
0000
0000
0022
0000
0000
0000
0000
0000
0000
0000
0200
0000
0000
0000
0000
0303
0000
0000
2000
0000
0000
0000
0000
0030
0000
0000
0022
0000
0000
0000
0000
3030
0000
0000
,
0200
0000
0000
0000
0000
0003
0000
0000
2020
0000
0000
0000
0000
3300
0000
0000
0002
0000
0000
0000
0000
0030
0000
0000
0220
0000
0000
0000
0000
0333
0000
0000
2020
0000
0000
0000
0000
0000
0000
0000
0200
0000
0000
0000
0000
0330
0000
0000
0002
0000
0000
0000
0000
3000
0000
0000
0220
0000
0000
0000
0000
0033
0000
0000
,
2000
0000
0000
0000
0000
0300
0000
0000
0022
0000
0000
0000
0000
3003
0000
0000
0200
0000
0000
0000
0000
0030
0000
0000
2002
0000
0000
0000
0000
3303
0000
0000
0022
0000
0000
0000
0000
0000
0000
0000
0200
0000
0000
0000
0000
0303
0000
0000
2000
0000
0000
0000
0000
0000
0000
0000
0200
0000
0000
0000
0000
3300
0000
0000
,
0002
0000
0000
0000
0000
0000
0000
0000
2000
0000
0000
0000
0000
3003
0000
0000
0200
0000
0000
0000
0000
0000
0000
0000
0002
0000
0000
0000
0000
0303
0000
0000
2000
0000
0000
0000
0000
0000
0000
0000
0200
0000
0000
0000
0000
3300
0000
0000
0002
0000
0000
0000
0000
0000
0000
0000
2000
0000
0000
0000
0000
3003
0000
0000
,
0200
0000
0000
0000
0000
0000
0000
0000
0002
0000
0000
0000
0000
0303
0000
0000
2000
0000
0000
0000
0000
0000
0000
0000
0002
0000
0000
0000
0000
3003
0000
0000
0200
0000
0000
0000
0000
0030
0000
0000
0022
0000
0000
0000
0000
0330
0000
0000
2000
0000
0000
0000
0000
0003
0000
0000
0220
0000
0000
0000
0000
3300
0000
0000
,
0002
0000
0000
0000
0000
0030
0000
0000
2200
0000
0000
0000
0000
3003
0000
0000
0020
0000
0000
0000
0000
0300
0000
0000
2002
0000
0000
0000
0000
3033
0000
0000
2200
0000
0000
0000
0000
0000
0000
0000
0020
0000
0000
0000
0000
3030
0000
0000
0002
0000
0000
0000
0000
0000
0000
0000
0020
0000
0000
0000
0000
0033
0000
0000
,
2000
0000
0000
0000
0000
0000
0000
0000
0002
0000
0000
0000
0000
3003
0000
0000
0020
0000
0000
0000
0000
0000
0000
0000
2000
0300
0000
0000
0000
3030
0000
0000
0202
0000
0000
0000
0000
0000
0000
0000
2000
0000
0000
0000
0000
3003
0000
0000
0020
0000
0000
0000
0000
0300
0000
0000
2002
0000
0000
0000
0000
3030
0000
0000
,
0200
0000
0000
0000
0000
0003
0000
0000
0022
0000
0000
0000
0000
0303
0000
0000
2000
0000
0000
0000
0000
0030
0000
0000
0200
0000
0000
0000
0000
3300
0000
0000
0022
0000
0000
0000
0000
0000
0000
0000
0200
0000
0000
0000
0000
0303
0000
0000
2000
0000
0000
0000
0000
0030
0000
0000
0202
0000
0000
0000
0000
3003
0000
0000
,
0020
0000
0000
0000
0000
0300
0000
0000
2200
0000
0000
0000
0000
0330
0000
0000
0002
0000
0000
0000
0000
3000
0000
0000
2200
0000
0000
0000
0000
3303
0000
0000
0022
0000
0000
0000
0000
0000
0000
0000
0200
0000
0000
0000
0000
0303
0000
0000
2000
0000
0000
0000
0000
0030
0000
0000
0022
0000
0000
0000
0000
3030
0000
0000
,
0200
0000
0000
0000
0000
0003
0000
0000
2020
0000
0000
0000
0000
3300
0000
0000
0002
0000
0000
0000
0000
0030
0000
0000
0220
0000
0000
0000
0000
0333
0000
0000
2020
0000
0000
0000
0000
0000
0000
0000
0200
0000
0000
0000
0000
0330
0000
0000
0002
0000
0000
0000
0000
3000
0000
0000
0220
0000
0000
0000
0000
0033
0000
0000
,
2000
0000
0000
0000
0000
0300
0000
0000
0022
0000
0000
0000
0000
3003
0000
0000
0200
0000
0000
0000
0000
0030
0000
0000
2002
0000
0000
0000
0000
3303
0000
0000
0022
0000
0000
0000
0000
0000
0000
0000
0200
0000
0000
0000
0000
0303
0000
0000
2000
0000
0000
0000
0000
0030
0000
0000
0202
0000
0000
0000
0000
3003
0000
0000
,
0020
0000
0000
0000
0000
0300
0000
0000
2200
0000
0000
0000
0000
0330
0000
0000
0002
0000
0000
0000
0000
3000
0000
0000
0220
0000
0000
0000
0000
0333
0000
0000
2020
0000
0000
0000
0000
0000
0000
0000
0200
0000
0000
0000
0000
3300
0000
0000
0002
0000
0000
0000
0000
0000
0000
0000
0200
0000
0000
0000
0000
0303
0000
0000
,
2000
0000
0000
0000
0000
0000
0000
0000
0200
0000
0000
0000
0000
3300
0000
0000
0002
0000
0000
0000
0000
0000
0000
0000
2000
0030
0000
0000
0000
3003
0000
0000
0200
0000
0000
0000
0000
0000
0000
0000
0020
0000
0000
0000
2000
0030
0000
0000
0000
0300
0000
0000
0220
0000
0000
0000
0000
3300
0000
0000
0002
0000
0000
0000
,
0000
0030
0000
0000
2200
0000
0000
0000
0000
3003
0000
0000
0020
0000
0000
0000
0000
0300
0000
0000
2002
0000
0000
0000
0000
3033
0000
0000
2200
0000
0000
0000
0000
0000
0000
0000
0020
0000
0000
0000
0000
3030
0000
0000
0002
0000
0000
0000
0000
0000
0000
0000
0020
0000
0000
0000
0000
0033
0000
0000
2000
0000
0000
0000
,
0000
0000
0000
0000
0002
0000
0000
0000
0000
3003
0000
0000
0020
0000
0000
0000
0000
0000
0000
0000
2000
0300
0000
0000
0000
3030
0000
0000
0202
0000
0000
0000
0000
0000
0000
0000
2000
0000
0000
0000
0000
3003
0000
0000
0020
0000
0000
0000
0000
0300
0000
0000
2002
0000
0000
0000
0000
3030
0000
0000
0200
0000
0000
0000
,
0000
0003
0000
0000
0022
0000
0000
0000
0000
0303
0000
0000
2000
0000
0000
0000
0000
0030
0000
0000
0200
0000
0000
0000
0000
3300
0000
0000
0022
0000
0000
0000
0000
0000
0000
0000
0200
0000
0000
0000
0000
0303
0000
0000
2000
0000
0000
0000
0000
0030
0000
0000
0202
0000
0000
0000
0000
3003
0000
0000
0020
0000
0000
0000
,
0000
0300
0000
0000
2200
0000
0000
0000
0000
0330
0000
0000
0002
0000
0000
0000
0000
3000
0000
0000
2200
0000
0000
0000
0000
3303
0000
0000
0022
0000
0000
0000
0000
0000
0000
0000
0200
0000
0000
0000
0000
0303
0000
0000
2000
0000
0000
0000
0000
0030
0000
0000
0022
0000
0000
0000
0000
3030
0000
0000
0200
0000
0000
0000
,
0000
0003
0000
0000
2020
0000
0000
0000
0000
3300
0000
0000
0002
0000
0000
0000
0000
0030
0000
0000
0220
0000
0000
0000
0000
0333
0000
0000
2020
0000
0000
0000
0000
0000
0000
0000
0200
0000
0000
0000
0000
0330
0000
0000
0002
0000
0000
0000
0000
3000
0000
0000
0220
0000
0000
0000
0000
0033
0000
0000
2000
0000
0000
0000
,
0000
0300
0000
0000
0022
0000
0000
0000
0000
3003
0000
0000
0200
0000
0000
0000
0000
0030
0000
0000
2002
0000
0000
0000
0000
3303
0000
0000
0022
0000
0000
0000
0000
0000
0000
0000
0200
0000
0000
0000
0000
0330
0000
0000
1000
0000
0000
0000
1000
0000
0000
0000
0100
0000
0000
0000
0100
0000
0000
0000
0010
0000
0000
0000
,
0010
0100
0100
1000
1000
0100
0100
0010
0010
0100
0100
1000
1000
0100
0100
0010
,
0010
0100
0100
1000
1000
0100
0100
0010
0010
0000
0000
0000
0000
0003
0000
0000
;

//---------------dance-solo - ----------------
#NOTES:
     dance-solo:
     :
     Hard:
     15:
     1.000,1.000,1.000,1.000,1.000,1583.000,721.000,1443.000,0.000,990.000:
000000
000000
000000
000000
000000
000000
000000
000000
000000
000000
000000
000000
000000
000001
000001
000001
,
000001
221000
000000
001000
000000
001000
000000
000100
000000
000000
000000
000010
000000
000010
000000
330001
,
000000
220000
000000
000010
000000
000010
000000
000100
000000
000000
000000
000100
000000
000100
000000
331000
,
000000
220000
000000
000100
000000
000100
000000
000010
000000
000000
000000
000100
000000
000100
000000
330001
,
000000
220000
000000
000000
000000
000000
000000
000000
000000
000000
000000
000000
000010
330100
001000
000122
,
000000
001000
000000
001000
000000
010000
000000
000000
000000
010000
000000
010000
000000
100033
000000
000022
,
000000
010000
000000
010000
000000
001000
000000
000000
000000
010000
000000
010000
000000
001033
000000
000022
,
000000
001000
000000
001000
000000
010000
000000
000000
000000
010000
000000
010000
000000
100033
000000
000022
,
000000
000000
000000
000000
000000
000000
000000
000000
000000
000000
000000
000000
000000
000100
000133
000100
,
000100
221000
000000
001000
000000
001000
000000
000010
000000
000000
000000
000100
000000
000100
000000
330001
,
000000
220000
000000
000010
000000
000010
000000
001000
000000
000000
000000
000100
000000
000100
000000
331000
,
000000
220000
000000
000100
000000
000100
000000
000010
000000
000000
000000
000010
000000
000010
000000
330001
,
000000
220000
000000
000000
000000
000000
000000
000000
000000
000000
000000
000000
000000
001000
331000
001000
,
001000
000122
000000
000100
000000
000100
000000
010000
000000
000000
000000
001000
000000
001000
000000
100033
,
000000
000022
000000
010000
000000
010000
000000
001000
000000
000000
000000
010000
000000
010000
000000
001033
,
000000
000022
000000
000100
000000
000100
000000
001000
000000
000000
000000
001000
000000
001000
000000
100033
,
010000
001022
010000
100000
011000
000100
011000
000100
011000
000100
011000
000100
011000
000100
011000
000133
,
001000
010101
001010
010101
000010
101100
010000
101010
000101
001010
000101
111000
000101
101010
010000
001100
,
000001
000010
001000
010101
000010
101100
010000
101010
010100
101010
010000
001100
000010
010101
101000
000111
,
101000
010100
101000
010101
000010
101100
010000
101010
000101
001010
000101
111000
000101
101010
010000
001100
,
000001
000000
000020
000030
000200
000300
002000
003000
020000
030000
200000
300000
020000
030000
002000
003000
000200
000300
000020
000030
000002
000003
000020
000030
000200
000300
000020
000030
111000
000000
011100
000000
,
001110
000111
010000
101010
000101
111000
000101
101010
000101
001010
100000
011100
000010
010101
001010
010101
,
001010
000101
101000
000111
101000
010101
000010
011100
100000
010000
000100
101010
010000
001101
000010
101100
,
010000
001000
000100
101010
010000
001101
000010
010101
001010
010100
001000
000111
101000
010101
000010
011100
,
100000
000000
020000
030000
002000
003000
000200
000300
001000
000000
020000
030000
002000
003000
000200
000300
000020
000030
000002
000003
000020
000030
000200
000300
000020
000030
000200
000300
002000
003000
020000
030000
,
002000
003000
010101
000000
101000
000000
000111
000000
101000
000000
010101
000000
000010
000000
011100
000000
100000
000000
010000
000000
000100
000000
101010
000000
010000
000000
001100
000000
000010
000000
010101
000000
,
101000
010100
001010
010101
101000
000111
101000
010101
101000
000101
000010
001100
010000
101010
000101
111000
,
000101
000010
000100
101010
010000
001100
000010
010101
001010
010100
101000
000111
101000
010101
000010
001100
,
100000
000000
020000
030000
002000
003000
000200
000300
000020
000030
000200
000300
002000
003000
000200
000300
000020
000030
000002
000003
000020
000030
000200
000300
002000
003000
020000
030000
002000
003000
000020
000030
,
000200
000300
101010
000000
010000
000000
001100
000000
000010
000000
010101
000000
101000
000000
000111
000000
101000
000000
010100
000000
101000
000000
010101
000000
000010
000000
001100
000000
010000
000000
101010
000000
,
010100
001010
000101
111000
000101
101010
010000
001110
000001
000010
001000
010101
000010
001100
010000
101010
,
010100
101000
010000
001100
000010
010101
101000
010101
001010
010100
101000
010101
000010
001100
010000
101100
,
000010
010101
101000
010101
000010
111000
000111
111000
000111
111000
000111
111000
000111
111000
000111
111000
,
000111
000000
000000
000000
020022
000000
000000
000000
000000
030000
000000
000000
000200
000000
000000
000000
000030
000000
000000
000000
222003
000000
000000
000000
000000
003300
000000
000000
000020
000000
000000
000000
000000
000000
000000
000000
332202
000000
000000
000000
000000
000330
000000
000000
020000
000000
000000
000000
000000
003000
000000
000000
202023
000000
000000
000000
000000
033030
000000
000000
320202
000000
000000
000000
,
000000
000000
000000
000000
000020
000000
000000
000000
002000
030030
000000
000000
000000
000000
000000
000000
020000
000000
000000
000000
000000
000000
033000
000000
000020
000000
000000
000000
000000
000000
000000
000000
020000
000000
000000
000000
000000
000000
030030
000000
002000
000000
000000
000000
000000
000000
000000
000000
000020
000300
000000
000000
000003
000000
003030
000000
020202
000000
000000
000000
000000
000000
000000
000000
,
002000
000000
000000
000000
000000
000000
033000
000000
000020
000000
000000
000000
000000
000000
000000
000000
222003
000300
000000
000000
000200
000000
003030
000000
000000
000000
000000
000000
002020
000000
030000
000000
300302
000030
000000
000000
020000
000000
000000
000000
000000
000000
003000
000000
000220
000000
000000
000000
200003
030330
000000
000000
002020
000000
000000
000000
000000
000000
000000
000000
300202
000000
000000
000000
,
020000
000330
000000
000000
000000
003000
000000
000000
000220
000000
000000
000000
000000
030030
000000
000000
202003
000000
000000
000000
000000
000300
000000
000000
000220
000000
000000
000000
000000
003300
000000
000000
320002
000000
000000
000000
000000
000030
000000
000000
002200
000000
000000
000000
000000
033300
000000
000000
002020
000000
000000
000000
200003
000000
000000
000000
020000
000000
000000
000000
300002
030030
000000
000000
,
000200
000000
000000
000000
000000
003000
000000
000000
020020
000000
000000
000000
000000
000330
000000
000000
002000
000000
000000
000000
200003
030000
000000
000000
000220
000000
000000
000000
000000
003300
000000
000000
020000
000000
000000
000000
300002
000030
000000
000000
002020
000000
000000
000000
000000
033030
000000
000000
020200
000000
000000
000000
200003
000000
000000
000000
002000
000000
000000
000000
300022
033000
000000
000000
,
000000
000300
000000
000000
022000
000000
000000
000000
000000
003030
000000
000000
000200
000000
000000
000000
000000
030000
000000
000000
202023
000000
000000
000000
000000
003300
000000
000000
000200
000000
000000
000000
000000
000030
000000
000000
322002
000000
000000
000000
000000
033300
000000
000000
002020
000000
000000
000000
200003
000000
000000
000000
000200
000000
000000
000000
300002
003300
000000
000000
020000
000000
000000
000000
,
000000
000030
000000
000000
002200
000000
000000
000000
000000
033000
000000
000000
000023
000000
000000
000000
000002
000300
000000
000000
022000
000000
000000
000000
000000
030030
000000
000000
000200
000000
000000
000000
200003
003000
000000
000000
020020
000000
000000
000000
000000
030330
000000
000000
002020
000000
000000
000000
300002
000000
000000
000000
020000
000000
000000
000000
200003
030030
000000
000000
000200
000000
000000
000000
,
000000
000000
000000
000000
000020
000000
000000
000000
000000
000330
000000
000000
020000
000000
000000
000000
000000
000000
000000
000000
000200
000000
000000
000000
000000
030300
000000
000000
000020
000000
000000
000000
000000
000000
000000
000000
020000
000000
003000
000000
000000
030030
000000
000000
002200
000000
000000
000000
000000
000000
000000
000000
000020
000000
000000
000000
000000
000330
000000
000000
320002
000000
000000
000000
,
000000
003000
000000
000000
000220
000000
000000
000000
000000
030300
000000
000000
002000
000000
000000
000000
200203
000030
000000
000000
020000
000000
000000
000000
000020
033000
000000
000000
000000
000000
000300
000000
322002
000000
000000
000000
000000
033030
000000
000000
002200
000000
000000
000000
000000
000000
000000
000000
220003
000000
000000
000000
000000
030300
000000
000000
300022
000000
000000
000000
000000
000000
000000
000000
,
000200
000000
000000
000000
000000
000330
000000
000000
020000
000000
000000
000000
000000
000000
000000
000000
000200
000000
000000
000000
000000
030300
000000
000000
020000
000000
000000
000000
000000
003000
000000
000000
000020
000000
000000
000000
000000
030030
000000
000000
002200
000000
000000
000000
000000
000000
000000
000000
000020
000000
000000
000000
000003
000330
000000
000000
020002
003000
000000
000000
000000
000000
000000
000000
,
000220
000000
000000
000000
000000
030300
000000
000000
002000
000000
000000
000000
000000
000030
000000
000000
220203
000000
000000
000000
000000
033000
000000
000000
000020
000000
000000
000000
000000
000300
000000
000000
322002
000000
000000
000000
000000
033030
000000
000000
000220
000000
000000
000000
000000
000000
000000
000000
002000
000000
000000
000000
200003
003030
000000
000000
020000
000000
000000
000000
300002
000300
000000
000000
,
002020
000000
000000
000000
000000
030030
000000
000000
000200
000000
000000
000000
000000
003000
000000
000000
020020
000000
000000
000000
200003
000330
000000
000000
002000
000000
000000
000000
000000
030000
000000
000000
020020
000000
000000
000000
300002
033030
000000
000000
002200
000000
000000
000000
000000
000000
000000
000000
000020
000000
000000
000000
200003
003030
000000
000000
320002
000000
000000
000000
000000
000300
000000
000000
,
002020
000000
000000
000000
000000
030030
000000
000000
000200
000000
000000
000000
000000
003000
000000
000000
020020
000000
000000
000000
200003
030300
000000
000000
002000
000000
000000
000000
000000
000030
000000
000000
320202
000000
000000
000000
000000
033300
000000
000000
002020
000000
000000
000000
000003
000000
000000
000000
000202
000000
000000
000000
000000
000330
000000
000000
020000
000000
000000
000000
200003
003000
000000
000000
,
000220
000000
000000
000000
000000
030030
000000
000000
002000
000000
000000
000000
000000
000300
000000
000000
020020
000000
000000
000000
300002
003030
000000
000000
000200
000000
000000
000000
000000
030000
000000
000000
002023
000000
000000
000000
000002
003330
000000
000000
020200
000000
000000
000000
000000
000000
000000
000000
002000
000000
000000
000000
200003
033000
000000
000000
000020
000000
000000
000000
300002
000000
000000
000000
,
002000
000000
000000
000000
000000
003030
000000
000000
020000
000000
000000
000000
000000
000000
000000
000000
000020
000000
000000
000000
000000
030030
000000
000000
002000
000000
000000
000000
000000
000000
000000
000000
000020
000000
000000
000000
000000
003030
000000
000000
020000
000000
000000
000000
000000
000000
000000
000000
002000
000000
000000
000000
000000
033000
000000
000000
000020
000000
000000
000000
000000
000000
000000
000000
,
020000
000000
000000
000000
000000
030030
000000
000000
002000
000000
000000
000000
000000
000000
000000
000000
000020
000000
000000
000000
000000
003030
000000
000000
020000
000000
000000
000000
000000
000000
000000
000000
002000
000000
000000
000000
000000
033000
000000
000000
002000
000000
000000
000000
000000
000300
000000
000000
020020
000000
000000
000000
000000
033000
000000
000000
000200
000000
000000
000000
000003
000030
000000
000000
,
022002
000000
000000
000000
000000
003300
000000
000000
000020
000000
000000
000000
000000
030000
000000
000000
202203
000000
000000
000000
000000
000330
000000
000000
020000
000000
000000
000000
000000
003000
000000
000000
002020
000000
000000
000000
300002
033030
000000
000000
020200
000000
000000
000000
000000
000000
000000
000000
000020
000000
000000
000000
200003
030030
000000
000000
302002
000000
000000
000000
000000
000000
000000
000000
,
020000
000000
000000
000000
000000
033000
000000
000000
000020
000000
000000
000000
000000
000000
000000
000000
020000
000000
000000
000000
000000
030030
000000
000000
002000
000000
000000
000000
000000
000300
000000
000000
000020
000000
000000
000000
000000
003030
000000
000000
020200
000000
000000
000000
000000
000000
000000
000000
002000
000000
000000
000000
000003
033000
000000
000000
000022
000000
000000
000000
000000
000300
000000
000000
,
022000
000000
000000
000000
000000
003030
000000
000000
000200
000000
000000
000000
000000
030000
000000
000000
202023
000000
000000
000000
000000
000330
000000
000000
020000
000000
000000
000000
300000
003000
000000
000000
200220
000000
000000
000000
000000
030330
000000
000000
002020
000000
000000
000000
000000
000000
000000
000000
300202
000000
000000
000000
000000
000330
000000
000000
220003
000000
000000
000000
000000
003000
000000
000000
,
000220
000000
000000
000000
000000
030030
000000
000000
002000
000000
000000
000000
000000
000300
000000
000000
000220
000000
000000
000000
300002
003300
000000
000000
020000
000000
000000
000000
000000
000030
000000
000000
002203
000000
000000
000000
000002
033300
000000
000000
002020
000000
000000
000000
000000
000000
000000
000000
220003
000000
000000
000000
000000
030030
000000
000000
000200
000000
000000
000000
300002
003000
000000
000000
,
020020
000000
000000
000000
000000
000330
000000
000000
002000
000000
000000
000000
000000
030000
000000
000000
000223
000000
000000
000000
000002
003300
000000
000000
020000
000000
000000
000000
000000
000030
000000
000000
002023
000000
000000
000000
000002
033030
000000
000000
020200
000000
000000
000000
000000
000000
000000
000000
002000
000000
000000
000000
200003
033000
000000
000000
000020
000000
000000
000000
300002
000300
000000
000000
,
022000
000000
000000
000000
000000
003030
000000
000000
000200
000000
000000
000000
000000
030000
000000
000000
202023
000000
000000
000000
000000
003300
000000
000000
000200
000000
000000
000000
300000
000030
000000
000000
222000
000000
000000
000000
000000
033300
000000
000000
002020
000000
000000
000000
000000
000000
000000
000000
300200
000000
000000
000000
200000
003300
000000
000000
320002
000000
000000
000000
000000
000030
000000
000000
,
002200
000000
000000
000000
000000
033000
000000
000000
000020
000000
000000
000000
000000
000300
000000
000000
022003
000000
000000
000000
000002
030030
000000
000000
000200
000000
000000
000000
000003
003000
000000
000000
020022
000000
000000
000000
000000
030330
000000
000000
002020
000000
000000
000000
000000
000000
000000
000000
220003
000000
000000
000000
000000
030030
000000
000000
300202
000000
000000
000000
000000
000000
000000
000000
,
000020
000000
000000
000000
000000
000330
000000
000000
020000
000000
000000
000000
000000
000000
000000
000000
000200
000000
000000
000000
000000
030300
000000
000000
000020
000000
000000
000000
000000
000000
000000
000000
020000
003000
000000
000000
000000
030030
000000
000000
002200
000000
000000
000000
000000
000000
000000
000000
000020
000000
000000
000000
000000
000330
000000
000000
020003
000000
000000
000000
000002
003000
000000
000000
,
000220
000000
000000
000000
000000
030300
000000
000000
002000
000000
000000
000000
000000
000030
000000
000000
020203
000000
000000
000000
000002
033000
000000
000000
000020
000000
000000
000000
000000
000300
000000
000000
022003
000000
000000
000000
033002
000030
000000
000000
002200
000000
000000
000000
000000
000000
000000
000000
020000
000000
000000
000000
200003
030300
000000
000000
000020
000000
000000
000000
300002
000000
000000
000000
,
000200
000000
000000
000000
000000
000330
000000
000000
020000
000000
000000
000000
000000
000000
000000
000000
000200
000000
000000
000000
000000
030300
000000
000000
020000
000000
000000
000000
000000
000000
000000
000000
000020
003000
000000
000000
000000
030030
000000
000000
002200
000000
000000
000000
000000
000000
000000
000000
000020
000000
000000
000000
000003
000330
000000
000000
020002
000000
000000
000000
003000
000000
000000
000000
,
000220
000000
000000
000000
000000
030300
000000
000000
002000
000000
000000
000000
000000
000030
000000
000000
020203
000000
000000
000000
000002
033000
000000
000000
000020
000000
000000
000000
000000
000300
000000
000000
022003
000000
000000
000000
000002
033030
000000
000000
000220
000000
000000
000000
000000
000000
000000
000000
002000
000000
000000
000000
200003
003030
000000
000000
020000
000000
000000
000000
300002
000300
000000
000000
,
002020
000000
000000
000000
000000
030030
000000
000000
000200
000000
000000
000000
000000
003000
000000
000000
020020
000000
000000
000000
200003
000330
000000
000000
002000
000000
000000
000000
300000
030000
000000
000000
220020
000000
000000
000000
000000
033030
000000
000000
002200
000000
000000
000000
300000
000000
000000
000000
200020
000000
000000
000000
000000
003030
000000
000000
320002
000000
000000
000000
000000
000300
000000
000000
,
002020
000000
000000
000000
000000
030030
000000
000000
000200
000000
000000
000000
000000
003000
000000
000000
020023
000000
000000
000000
000002
030300
000000
000000
002000
000000
000000
000000
000000
000030
000000
000000
020203
000000
000000
000000
000002
033300
000000
000000
002020
000000
000000
000000
000000
000000
000000
000000
000200
000000
000000
000000
200003
000330
000000
000000
020000
000000
000000
000000
300002
003000
000000
000000
,
000220
000000
000000
000000
000000
030030
000000
000000
002000
000000
000000
000000
000000
000300
000000
000000
020023
000000
000000
000000
000002
003030
000000
000000
000200
000000
000000
000000
000000
030000
000000
000000
002023
000000
000000
000000
000002
003330
000000
000000
020200
000000
000000
000000
000000
000000
000000
000000
202003
000000
000000
000000
000000
033000
000000
000000
000022
000000
000000
000000
000000
000000
000000
000000
,
002000
000000
000000
000000
000000
003030
000000
000000
020000
000000
000000
000000
000000
000000
000000
000000
000020
000000
000000
000000
000000
030030
000000
000000
002000
000000
000000
000000
000000
000000
000000
000000
000020
000000
000000
000000
000000
003030
000000
000000
020000
000000
000000
000000
000000
000000
000000
000000
002000
000000
000000
000000
000000
033000
000000
000000
000020
000000
000000
000000
000000
000000
000000
000000
,
000000
000000
000000
000000
000000
000000
000000
000000
000000
000000
000000
000000
010000
000000
000000
000000
010000
000030
000000
000000
010000
000000
000000
000000
010000
000000
000000
000000
000010
000000
000000
000000
000010
000000
000000
000000
000010
000000
000000
000000
000010
000000
000000
000000
001000
000000
000000
000000
001000
000000
000000
000000
001000
000000
000000
000000
001000
000300
000000
000000
022220
000000
000000
000000
,
333333
000000
000000
000000
000000
000000
000000
000000
000000
022220
003300
030030
000000
000000
000000
000000
,
000000
022220
030030
003300
000000
000000
000000
000000
022220
003300
030030
000000
000000
000000
000000
000000
,
022220
030030
003300
000000
000000
000000
000000
000000
022220
003300
030030
000000
000000
000000
000000
000000
,
022220
030030
003300
000000
000000
000000
000000
000000
000000
022220
003300
030030
000000
000000
000000
000000
,
222222
003300
030030
000000
300003
000000
000000
000000
000000
000000
000000
000000
000000
000000
000000
000000
220022
300003
030030
000000
000000
000000
000000
000000
000000
000000
000000
000000
000000
000000
000000
000000
,
022220
033000
000330
000000
000000
000000
000000
000000
000000
000000
000000
000000
000000
000000
000000
000000
000000
000000
022022
003003
030030
000000
000000
000000
000000
000000
000000
000000
000000
000000
000000
000000
,
022220
030300
003030
000000
000000
000000
000000
000000
000000
000000
000000
000000
000000
000000
000000
000000
022220
030030
003300
000000
000000
000000
000000
000000
000000
000000
000000
000000
000000
000000
000000
000000
,
022220
030030
003300
000000
000000
000000
000000
000000
000000
000000
000000
000000
000000
000000
000000
000000
022220
030030
003300
000000
000000
000000
000000
000000
000000
000000
000000
000000
000000
000000
000000
000000
,
222222
300003
030030
003300
000000
000000
000000
000000
000000
000000
202202
300003
003300
000000
000000
000000
000000
000000
020020
000000
030030
000000
000000
000000
000000
000000
202202
300003
003300
000000
000000
000000
,
000000
000000
020020
000000
030030
000000
000000
000000
000000
000000
202202
300003
003300
000000
000000
000000
000000
000000
020020
000000
030030
000000
000000
000000
000000
000000
202202
300003
003300
000000
000000
000000
,
000000
000000
020020
000000
030030
000000
000000
000000
000000
000000
202202
300003
003300
000000
000000
000000
000000
000000
020020
000000
030030
000000
000000
000000
000000
000000
202202
300003
003300
000000
000000
000000
,
000000
000000
020020
000000
030030
000000
000000
000000
000000
000000
202202
300003
003300
000000
000000
000000
000000
000000
020020
000000
030030
000000
000000
000000
000000
000000
202202
300003
003300
000000
000000
000000
,
000000
000000
020020
000000
030030
000000
000000
000000
000000
000000
020020
000000
030030
000000
000000
000000
000000
000000
202202
300003
003300
000000
000000
000000
000000
000000
202202
300003
003300
000000
000000
000000
,
000000
000000
020020
000000
030030
000000
000000
000000
000000
000000
020020
000000
030030
000000
000000
000000
000000
000000
202202
300003
003300
000000
000000
000000
000000
000000
202202
300003
003300
000000
000000
000000
,
000000
000000
020020
000000
030030
000000
000000
000000
000000
000000
202202
300003
003300
000000
000000
000000
000000
000000
020020
000000
030030
000000
000000
000000
000000
000000
202202
300003
003300
000000
000000
000000
,
000000
000000
020020
000000
030030
000000
000000
000000
000000
000000
202202
300003
003300
000000
000000
000000
000000
000000
221122
030030
300003
000000
000000
000000
222222
333333
000000
000000
222222
333333
000000
000000
,
000000
000000
000000
000000
000000
000000
000000
000000
200001
300010
001000
000100
010002
100003
001000
000100
,
201000
311100
000111
011100
100002
010003
001000
010000
200001
300010
001000
000100
010002
100003
001000
000100
,
201000
311100
000111
011100
100002
010003
001000
010000
100002
010003
000010
001000
200100
300010
000100
001000
,
000102
001113
111000
001110
200001
300010
001000
000100
100002
010003
001000
010000
200100
300010
000100
001000
,
000102
001113
111000
001110
200001
300010
000100
000010
200001
300010
001000
000100
010002
100003
010000
000100
,
201000
311100
000111
011100
100002
010003
001000
010000
200001
300010
000100
000010
001002
010003
001000
000100
,
201000
311100
000111
011100
100002
010003
001000
010000
100002
010003
000010
000100
200010
300001
000010
001000
,
000102
000000
001113
000000
111000
000000
001110
000000
200001
000000
300010
000000
000100
000000
000010
000000
010002
000000
001003
000000
000200
000300
200020
300030
020000
030000
002000
003000
000200
000300
000020
000030
,
020002
030003
002000
003000
000200
000300
000020
000030
222002
000003
000000
000000
000000
000000
000000
000000
333000
000000
002010
003000
020000
030000
200001
300000
020000
030000
002010
003000
020000
030000
200100
300000
,
020000
030000
002010
003000
020000
030000
200001
300000
020000
030000
002010
003000
020000
030000
200100
300000
020000
030000
002010
003000
020000
030000
200001
300000
020000
030000
002010
003000
020000
030000
200100
300000
,
020000
030000
002010
003000
020000
030000
200001
300000
020000
030000
002010
003000
020000
030000
200010
300000
000200
000300
010020
000030
000002
000003
001020
000030
000200
000300
010020
000030
000002
000003
100020
000030
,
000200
000300
010020
000030
000002
000003
001020
000030
000200
000300
010020
000030
000002
000003
100020
000030
000200
000300
010020
000030
000002
000003
001020
000030
000200
000300
010020
000030
000002
000003
100020
000030
,
000200
000300
010020
000030
000002
000003
001020
000030
000200
000300
010020
000030
000002
000003
100020
000030
000200
000300
200010
300000
020000
030000
002001
003000
020000
030000
200010
300000
020000
030000
002001
003000
,
020000
030000
200010
300000
020000
030000
002001
003000
020000
030000
200010
300000
020000
030000
002001
003000
020000
030000
200010
300000
020000
030000
002001
003000
020000
030000
200010
300000
020000
030000
002001
003000
,
020000
030000
200010
300000
020000
030000
002001
003000
020000
030000
200010
300000
020000
030000
002001
003000
000020
000030
010200
000300
000020
000030
100002
000003
000020
000030
010200
000300
000020
000030
100002
000003
,
000020
000030
010200
000300
000020
000030
100002
000003
000020
000030
010200
000300
000020
000030
100002
000003
000020
000030
010200
000300
000020
000030
100002
000003
000020
000030
010200
000300
000020
000030
100002
000003
,
000020
000030
010200
000300
000020
000030
100002
000003
000020
000030
010200
000300
000020
000030
100002
000003
000020
000030
121002
000000
030103
000000
001010
000000
000100
000000
201021
000000
300130
000000
001001
000000
,
010000
102102
003013
010100
001000
220101
330010
101202
010303
101000
010100
101010
010100
101010
010100
001010
,
010100
001010
000101
001010
000101
101010
010000
202101
303010
000101
001000
010100
101000
010122
101033
010100
,
001000
120102
030013
100100
001000
120102
030013
201201
310300
001010
000101
001010
000100
201021
300130
001001
,
010000
102012
003103
001010
000100
201021
310030
101202
010303
001010
000101
001010
000100
012012
003103
001010
,
000100
201021
310030
101000
000100
012012
003103
221010
330101
001010
000101
101010
010000
102012
003103
001010
,
000100
121002
030103
001010
010000
201021
300130
012012
003103
001010
000101
001010
010000
202101
303010
010100
,
001000
000000
120102
000000
031003
000000
010100
000000
000010
000000
101202
000000
010303
000000
201021
000000
300130
000000
001010
000000
000100
000000
002000
003000
020002
030003
200020
300030
000200
000300
002000
003000
,
020000
030000
200020
300030
000200
000300
002000
003000
020000
030000
000222
000000
000000
000000
000000
000000
000000
000000
000333
000000
021012
000000
130103
000000
001010
000000
010010
000000
202101
000000
313010
000000
,
000101
001010
020102
131003
000101
010010
201201
310300
101022
010133
101000
000101
101000
010100
001010
000101
,
001010
010100
001010
010100
001010
010100
001010
000101
201020
310131
001000
010100
001010
100100
021012
130103
,
001010
000101
201020
300131
001000
010010
002102
003013
210200
301310
010001
001010
000101
010010
101202
010313
,
101000
010100
201020
310031
001000
100100
021002
030103
201020
310031
101000
010100
001010
010100
001022
010133
,
001010
010100
202010
303101
000010
000101
021012
030103
201020
310131
001000
010100
101000
010010
001202
010313
,
001000
000000
000101
000000
201020
000000
310130
000000
001000
000000
100100
000000
010022
000000
101033
000000
020100
000000
031010
000000
000101
000000
001010
000000
000200
000300
002000
003000
200000
300000
020000
030000
,
002000
003000
000200
000300
200020
300030
020002
030003
002000
003000
000200
000300
200020
300030
020002
030003
002000
003000
000200
000300
200020
300030
020002
030003
002000
003000
000200
000300
200020
300030
020002
030003
,
002000
000000
003000
000000
000200
000000
000300
000000
200020
000000
300030
000000
020002
000000
030003
000000
002000
000000
003000
000000
000200
000000
000300
000000
022000
000000
000000
000000
000002
000000
000000
000000
000000
000000
000000
000000
000000
033000
000000
000000
000220
000000
000000
000000
000000
000300
000000
000000
220003
000000
000000
000000
000000
000030
000000
000000
002200
000000
000000
000000
000000
033000
000000
000000
,
000020
000000
000000
000000
300002
000300
000000
000000
022000
000000
000000
000000
000000
030030
000000
000000
000200
000000
000000
000000
200003
003000
000000
000000
020020
000000
000000
000000
300002
030330
000000
000000
022000
000000
000000
000000
000000
000000
000000
000000
000200
000000
000000
000000
000000
030300
000000
000000
000020
000000
000000
000000
000000
000000
000000
000000
000200
000000
000000
000000
000000
000330
000000
000000
,
020000
000000
000000
000000
000000
000000
000000
000000
000020
000000
000000
000000
000000
030030
000000
000000
000200
000000
000000
000000
000000
000000
000000
000000
020003
003000
000000
000000
000002
030300
000000
000000
002020
000000
000000
000000
000000
000000
000000
000000
020000
000000
000000
000000
000000
030030
000000
000000
000200
000000
000000
000000
200003
003000
000000
000000
020020
000000
000000
000000
000000
030300
000000
000000
,
002000
000000
000000
000000
300002
000030
000000
000000
000220
000000
000000
000000
000000
003030
000000
000000
020000
000000
000000
000000
200003
000300
000000
000000
002000
000000
000000
000000
300002
033000
000000
000000
000220
000000
000000
000000
000000
000000
000000
000000
002000
000000
000000
000000
000000
003030
000000
000000
020000
000000
000000
000000
000000
000300
000000
000000
202023
000000
000000
000000
000000
030030
000000
000000
,
000200
000000
000000
000000
300002
003000
000000
000000
022000
000000
000000
000000
000000
003300
000000
000000
000020
000000
000000
000000
200003
030000
000000
000000
022000
000000
000000
000000
300002
033030
000000
000000
000220
000000
000000
000000
000000
000000
000000
000000
002000
000000
000000
000000
000000
003030
000000
000000
020000
000000
000000
000000
200003
000300
000000
000000
000220
000000
000000
000000
000000
030300
000000
000000
,
302000
000000
000000
000000
200000
000030
000000
000000
020200
000000
000000
000000
000000
033000
000000
000000
000020
000000
000000
000000
300002
000300
000000
000000
002200
000000
000000
000000
200003
003330
000000
000000
020200
000000
000000
000000
000000
000000
000000
000000
002000
000000
000000
000000
000000
003300
000000
000000
000020
000000
000000
000000
300002
030000
000000
000000
002200
000000
000000
000000
000000
000330
000000
000000
,
020003
000000
000000
000000
000002
003000
000000
000000
000220
000000
000000
000000
000000
030030
000000
000000
002000
000000
000000
000000
200003
000300
000000
000000
020020
000000
000000
000000
300002
033030
000000
000000
000220
000000
000000
000000
000000
000000
000000
000000
002000
000000
000000
000000
000000
003030
000000
000000
020003
000000
000000
000000
000002
000300
000000
000000
002020
000000
000000
000000
000000
030030
000000
000000
,
000203
000000
000000
000000
000002
003000
000000
000000
022000
000000
000000
000000
000000
003300
000000
000000
000020
000000
000000
000000
200003
030000
000000
000000
002200
000000
000000
000000
300002
003330
000000
000000
020200
000000
000000
000000
000000
000000
000000
000000
002000
000000
000000
000000
000000
033000
000000
000000
000020
000000
000000
000000
000000
000000
000000
000000
002000
000000
000000
000000
000000
003030
000000
000000
,
020000
000000
000000
000000
000000
000000
000000
000000
002000
000000
000000
000000
000000
033000
000000
000000
000020
000000
000000
000000
000000
000000
000000
000000
020000
000300
000000
000000
200003
030030
000000
000000
002000
000000
000000
000000
000000
000000
000000
000000
000200
000000
000000
000000
000000
000300
000000
000000
320000
000000
000000
000000
200000
003000
000000
000000
002200
000000
000000
000000
000000
033000
000000
000000
,
300020
000000
000000
000000
200000
000300
000000
000000
022000
000000
000000
000000
000000
030030
000000
000000
000200
000000
000000
000000
300002
003000
000000
000000
020023
000000
000000
000000
000002
030330
000000
000000
022000
000000
000000
000000
000000
000000
000000
000000
000200
000000
000000
000000
000000
030300
000000
000000
000020
000000
000000
000000
000000
000000
000000
000000
000200
000000
000000
000000
000000
000330
000000
000000
,
020000
000000
000000
000000
000000
000000
000000
000000
000020
000000
000000
000000
000000
030030
000000
000000
000200
000000
000000
000000
000000
000000
000000
000000
020003
003000
000000
000000
000002
030300
000000
000000
002020
000000
000000
000000
000000
000000
000000
000000
020000
000000
000000
000000
000000
030030
000000
000000
000200
000000
000000
000000
200003
003000
000000
000000
020020
000000
000000
000000
000000
030300
000000
000000
,
002000
000000
000000
000000
300002
000030
000000
000000
000220
000000
000000
000000
000000
003030
000000
000000
020000
000000
000000
000000
200003
000300
000000
000000
002000
000000
000000
000000
300002
033000
000000
000000
000220
000000
000000
000000
000000
000000
000000
000000
002000
000000
000000
000000
000000
003030
000000
000000
020000
000000
000000
000000
000003
000300
000000
000000
002022
000000
000000
000000
000000
030030
000000
000000
,
000200
000000
000000
000000
000003
003000
000000
000000
022002
000000
000000
000000
000000
003300
000000
000000
000020
000000
000000
000000
200003
030000
000000
000000
022000
000000
000000
000000
300002
033030
000000
000000
000220
000000
000000
000000
000000
000000
000000
000000
002000
000000
000000
000000
000000
003030
000000
000000
020000
000000
000000
000000
200003
000300
000000
000000
000220
000000
000000
000000
000000
030300
000000
000000
,
302000
000000
000000
000000
200000
000030
000000
000000
020200
000000
000000
000000
000000
033000
000000
000000
300020
000000
000000
000000
200000
000300
000000
000000
002200
000000
000000
000000
300002
003330
000000
000000
020200
000000
000000
000000
000000
000000
000000
000000
002000
000000
000000
000000
000000
003300
000000
000000
000020
000000
000000
000000
200003
030000
000000
000000
002200
000000
000000
000000
000000
000330
000000
000000
,
320000
000000
000000
000000
200000
003000
000000
000000
000220
000000
000000
000000
000000
030030
000000
000000
002000
000000
000000
000000
300002
000300
000000
000000
020023
000000
000000
000000
000002
033030
000000
000000
000220
000000
000000
000000
000000
000000
000000
000000
002000
000000
000000
000000
000000
003030
000000
000000
020000
000000
000000
000000
000000
000000
000000
000000
002000
000000
000000
000000
000000
033000
000000
000000
,
000020
000000
000000
000000
000000
000000
000000
000000
020000
000000
000000
000000
000000
030030
000000
000000
002000
000000
000000
000000
000000
000000
000000
000000
000020
000000
000000
000000
000000
003030
000000
000000
020000
000000
000000
000000
000000
000000
000000
000000
002000
000000
000000
000000
000000
033000
000000
000000
000020
000000
000000
000000
000000
000000
000000
000000
020000
000000
000000
000000
000000
030030
000000
000000
,
002000
000000
000000
000000
000000
000000
000000
000000
000020
000000
000000
000000
000000
003030
000000
000000
020000
000000
000000
000000
000000
000000
000000
000000
000020
000000
000000
000000
000000
030030
000000
000000
002003
000000
000000
000000
000002
000300
000000
000000
000220
000000
000000
000000
000000
003300
000000
000000
020000
000000
000000
000000
200003
000030
000000
000000
002200
000000
000000
000000
000000
033000
000000
000000
,
000020
000000
000000
000000
300002
000300
000000
000000
022000
000000
000000
000000
000000
030030
000000
000000
000200
000000
000000
000000
200003
003000
000000
000000
020020
000000
000000
000000
300002
030330
000000
000000
022000
000000
000000
000000
000000
000000
000000
000000
000200
000000
000000
000000
000000
030300
000000
000000
000020
000000
000000
000000
000000
000000
000000
000000
000200
000000
000000
000000
000000
000330
000000
000000
,
020000
000000
000000
000000
000000
000000
000000
000000
000020
000000
000000
000000
000000
030030
000000
000000
000200
000000
000000
000000
000000
000000
000000
000000
020003
003000
000000
000000
000002
030300
000000
000000
002020
000000
000000
000000
000000
000000
000000
000000
020000
000000
000000
000000
000000
030030
000000
000000
000203
000000
000000
000000
000002
003000
000000
000000
020020
000000
000000
000000
000000
030300
000000
000000
,
002000
000000
000000
000000
200003
000030
000000
000000
000220
000000
000000
000000
000000
003030
000000
000000
020000
000000
000000
000000
300002
000300
000000
000000
002000
000000
000000
000000
200003
033000
000000
000000
000220
000000
000000
000000
000000
000000
000000
000000
002000
000000
000000
000000
000000
003030
000000
000000
020000
000000
000000
000000
300002
000300
000000
000000
002020
000000
000000
000000
000000
030030
000000
000000
,
000200
000000
000000
000000
000003
003000
000000
000000
022002
000000
000000
000000
000000
003300
000000
000000
000020
000000
000000
000000
000000
030000
000000
000000
222003
000000
000000
000000
300002
033030
000000
000000
000220
000000
000000
000000
000000
000000
000000
000000
002000
000000
000000
000000
000000
003030
000000
000000
020000
000000
000000
000000
200003
000300
000000
000000
000220
000000
000000
000000
000000
030300
000000
000000
,
302000
000000
000000
000000
200000
000030
000000
000000
020200
000000
000000
000000
000000
033000
000000
000000
300020
000000
000000
000000
200000
000300
000000
000000
002200
000000
000000
000000
300002
003330
000000
000000
020200
000000
000000
000000
000000
000000
000000
000000
002000
000000
000000
000000
000000
003300
000000
000000
000023
000000
000000
000000
000002
030000
000000
000000
002200
000000
000000
000000
000000
000330
000000
000000
,
020003
000000
000000
000000
000002
003000
000000
000000
000220
000000
000000
000000
000000
030030
000000
000000
002000
000000
000000
000000
200003
000300
000000
000000
020020
000000
000000
000000
300002
033030
000000
000000
000220
000000
000000
000000
000000
000000
000000
000000
002000
000000
000000
000000
000000
003030
000000
000000
020000
000000
000000
000000
200003
000300
000000
000000
002020
000000
000000
000000
000000
030030
000000
000000
,
300200
000000
000000
000000
200000
003000
000000
000000
022000
000000
000000
000000
000000
003300
000000
000000
300020
000000
000000
000000
200000
030000
000000
000000
002200
000000
000000
000000
300002
003330
000000
000000
020200
000000
000000
000000
000000
000000
000000
000000
002000
000000
000000
000000
000000
033000
000000
000000
000020
000000
000000
000000
000000
000000
000000
000000
002000
000000
000000
000000
000000
003030
000000
000000
,
020000
000000
000000
000000
000000
000000
000000
000000
002000
000000
000000
000000
000000
033000
000000
000000
000020
000000
000000
000000
000000
000000
000000
000000
020003
000300
000000
000000
000002
030030
000000
000000
002000
000000
000000
000000
000000
000000
000000
000000
000200
000000
000000
000000
020000
000300
000000
000000
000000
003000
000000
000000
202203
000000
000000
000000
000000
033000
000000
000000
000020
000000
000000
000000
,
000000
000300
000000
000000
322002
000000
000000
000000
000000
030030
000000
000000
000200
000000
000000
000000
000000
003000
000000
000000
220023
000000
000000
000000
000000
030330
000000
000000
322002
000000
000000
000000
000000
000000
000000
000000
000200
000000
000000
000000
000000
030300
000000
000000
000020
000000
000000
000000
000000
000000
000000
000000
000200
000000
000000
000000
000000
000330
000000
000000
020000
000000
000000
000000
,
000000
000000
000000
000000
000020
000000
000000
000000
000000
030030
000000
000000
000200
000000
000000
000000
000000
000000
000000
000000
020003
003000
000000
000000
000002
030300
000000
000000
002020
000000
000000
000000
000000
000000
000000
000000
020000
000000
000000
000000
000000
030030
000000
000000
000200
000000
000000
000000
000003
003000
000000
000000
020022
000000
000000
000000
000000
030300
000000
000000
002000
000000
000000
000000
,
000003
000030
000000
000000
000222
000000
000000
000000
000000
003030
000000
000000
020000
000000
000000
000000
000000
000300
000000
000000
202003
000000
000000
000000
000000
033000
000000
000000
300222
000000
000000
000000
000000
000000
000000
000000
002000
000000
000000
000000
000000
003030
000000
000000
020000
000000
000000
000000
000000
000300
000000
000000
202023
000000
000000
000000
000000
030030
000000
000000
000200
000000
000000
000000
,
300000
003000
000000
000000
222000
000000
000000
000000
000000
003300
000000
000000
000020
000000
000000
000000
000000
030000
000000
000000
322002
000000
000000
000000
000000
033030
000000
000000
200223
000000
000000
000000
000000
000000
000000
000000
002000
000000
000000
000000
000000
003030
000000
000000
020000
000000
000000
000000
300000
000300
000000
000000
200220
000000
000000
000000
000000
030300
000000
000000
002000
000000
000000
000000
,
300000
000030
000000
000000
220200
000000
000000
000000
000000
033000
000000
000000
000020
000000
000000
000000
000000
000300
000000
000000
302202
000000
000000
000000
200003
003330
000000
000000
020200
000000
000000
000000
000000
000000
000000
000000
002000
000000
000000
000000
000000
003300
000000
000000
000020
000000
000000
000000
000000
030000
000000
000000
302202
000000
000000
000000
000000
000330
000000
000000
020000
000000
000000
000000
,
000003
003000
000000
000000
000222
000000
000000
000000
000000
030030
000000
000000
002000
000000
000000
000000
000000
000300
000000
000000
220023
000000
000000
000000
000000
033030
000000
000000
000222
000000
000000
000000
000000
000000
000000
000000
002000
000000
000000
000000
000000
003300
000000
000000
010000
000000
000000
000000
010000
000000
000000
000000
001000
000000
000000
000000
001000
000000
000000
000000
000100
000000
000000
000000
,
000100
001000
001000
010000
010000
001000
001000
000100
000100
001000
001000
010000
010000
001000
001000
000100
,
000100
001000
001000
010000
010000
001000
001000
000100
000100
000000
300000
000000
000003
000030
000000
000000
;
